#TITLE:疯了;
#SUBTITLE:;
#ARTIST:MC梦;
#TITLETRANSLIT:;
#SUBTITLETRANSLIT:;
#ARTISTTRANSLIT:;
#CREDIT:;
#BANNER:_logo.jpg;
#BACKGROUND:_bg.jpg;
#LYRICSPATH:;
#CDTITLE:Lan.png;
#MUSIC:.mp3;
#OFFSET:-0.020;
#SAMPLESTART:100.000;
#SAMPLELENGTH:12.000;
#SELECTABLE:YES;
#BPMS:0.000=122.000;
#STOPS:;
#BGCHANGES:;
// cache tags:
#FIRSTBEAT:8.000;
#LASTBEAT:294.000;
#SONGFILENAME:Songs/lan sky/Crazy/.sm;
#HASMUSIC:1;
#HASBANNER:1;
#MUSICLENGTH:152.284;
// end cache tags

//---------------dance-single - sky----------------
#NOTES:
     dance-single:
     sky:
     Hard:
     9:
     0.726,0.917,0.827,0.177,0.525,619.000,126.000,27.000,0.000,19.000:

0000
0000
0000
0000
,
0000
0000
0000
0000
,
2100
0000
0000
3102
0000
0120
0000
0000
,
2133
0000
0000
0000
0000
0000
3201
0021
,
0002
0000
0000
2333
0000
0020
0000
0200
,
0002
0000
0000
0000
0000
0000
0000
0000
0000
3333
0001
0000
1000
0000
0010
0000
,
0201
0000
0000
2001
0000
0010
0000
3312
,
0000
0000
0000
0000
0000
0000
1023
0200
,
2000
0000
0000
0000
0000
0000
3331
0000
0000
0000
0000
0100
0000
0000
0010
0000
,
0002
0000
0000
0000
0000
0000
0000
0000
0000
0000
0000
0000
0000
0000
0000
0000
1000
0000
0010
0000
0103
0000
0010
0000
1000
0100
0010
0001
1000
0100
0010
0001
,
1000
0000
0010
0000
0101
0000
0010
0000
1000
0100
0000
0001
0010
0000
0100
0000
,
1000
0000
0010
0000
0100
0000
0001
0000
0010
0100
0000
1000
0001
0000
0100
0000
,
0001
0000
0010
0000
1000
0000
0100
0000
1000
0000
0001
0001
0010
0000
1000
0000
,
0100
0000
0001
0000
0010
0000
0001
0000
1000
0000
0100
0000
1000
0001
0010
0100
,
0001
0000
1000
0000
0100
0000
0010
0000
1000
0100
0000
0010
0100
0000
0001
0000
,
0010
0000
0001
0000
1000
0000
0100
0000
1000
0010
0000
0100
0001
0000
0010
0000
,
0100
0000
1000
0000
0010
0000
0001
0000
0100
0000
1000
1000
0010
0000
0100
0000
,
0001
0000
1000
0000
0100
0000
0001
0000
0010
0010
0000
0000
1000
1000
0000
0000
,
0001
0000
0100
0000
1000
0000
0010
0000
0100
0000
0100
0100
1000
0000
0000
0000
,
0100
0000
1000
0000
0100
0000
0010
0000
0001
0000
0001
0001
0100
0000
0000
0000
,
0010
0000
0001
0000
1000
0000
0010
0000
0100
0100
0001
0000
1000
0000
0010
0000
,
1001
0010
0100
0000
1001
0100
0010
0000
0110
0010
0001
0000
0011
1000
0100
0000
,
1001
0100
1000
0000
0011
0100
0010
1000
0101
0010
0001
0000
1100
0010
0001
0000
,
1001
0010
0001
0000
1100
0010
0100
0001
1010
0100
1000
0000
0011
0100
1000
0000
,
0101
0010
1000
0000
0011
0100
0001
1000
0100
0010
1001
0000
1100
0010
1000
0001
,
1010
0100
1000
0001
0000
1001
0100
0010
0001
0010
0100
1000
0001
0000
0001
0010
,
1000
0000
0100
0000
1000
0000
0001
0000
1000
0010
0000
0010
1000
0000
0001
0000
,
1000
0000
0100
0000
1000
0000
0010
0000
1000
0001
0000
0001
1000
0000
0100
0000
,
1000
0000
0010
0000
1000
0000
0001
0000
1000
0000
0010
0010
1000
0000
0100
0000
,
1000
0000
0001
0000
1000
0000
0010
0000
1000
0000
0100
0000
1000
0001
0010
0100
,
0001
0000
1000
0000
0001
0000
0100
0000
0001
1000
0000
1000
0001
0000
0100
0000
,
0001
0000
1000
0000
0001
0000
0010
0000
0001
0100
0000
0100
0001
0000
1000
0000
,
0001
0000
0010
0000
0001
0000
0100
0000
0001
0000
1000
1000
0001
0000
0010
0000
,
0001
0000
0000
0100
0001
0000
1000
0000
0001
0001
0000
0000
0001
0010
0100
1000
,
0011
0000
0100
0000
1010
0000
0100
0000
1100
0010
0000
0010
1100
0000
0010
0000
,
1001
0000
0100
0000
1010
0000
0100
0000
0011
0100
0000
0100
0011
0000
1000
0000
,
0110
0000
1000
0000
0101
0000
0010
0000
1100
0000
0001
0001
1100
0000
0110
0000
,
1001
0000
0100
0000
0011
0000
1000
0000
0110
0000
0001
0000
0101
1000
0100
0010
,
1001
0000
0100
0000
1010
0000
0001
0000
0110
0001
0000
0001
0110
0000
1000
0000
,
0101
0000
0010
0000
1100
0000
0001
0000
1001
0010
0000
0010
1001
0000
0100
0000
,
1010
0000
0100
0000
0011
0000
0100
0000
1010
0000
0001
0001
1010
0000
0100
0000
,
1011
0000
0000
0000
,
2001
0000
0000
0000
,
3021
0000
0000
0000
0000
1030
0100
0010
,
1002
0000
0000
0000
,
0123
0000
0000
0000
1030
0001
0100
0010
,
0201
0000
0000
0000
0000
0301
1000
0100
,
0021
0000
0000
0000
0031
0100
1000
0100
,
1002
0000
0000
0000
,
1003
0000
0000
0100
0010
0000
0001
0000
0100
1000
0000
0100
0001
0000
0010
0000
,
1001
0100
0010
0000
1100
0010
0100
0001
1010
0100
1000
0000
0011
0100
0001
1000
,
0101
0010
0001
0000
1100
0001
0010
1000
0101
0010
0001
0000
1100
0010
1000
0001
,
1010
0100
1000
0000
0110
0001
0100
1000
0101
0010
0001
0000
0101
1000
0010
0001
,
1010
0100
1000
0100
0001
0100
1000
0010
0001
1000
0100
0010
1000
0001
0010
0100
,
1000
0000
0100
0000
1000
0000
0001
0000
1000
0010
0000
0010
1000
0000
0001
0000
,
1000
0000
0100
0000
1000
0000
0010
0000
1000
0000
0001
0001
1000
0000
0100
0000
,
1000
0000
0010
0000
1000
0000
0001
0000
1000
0010
0000
0010
1000
0000
0100
0000
,
1000
0000
0001
0000
1000
0000
0010
0000
1000
0001
0000
0010
1000
0000
0100
0000
,
0001
0000
1000
0000
0001
0000
0100
0000
0001
1000
0000
1000
0001
0000
0100
0000
,
0001
0000
1000
0000
0001
0000
0010
0000
0001
0000
0100
0100
0001
0000
1000
0000
,
0001
0000
0010
0000
1000
0100
0010
0001
0100
0010
0001
1000
0010
0001
1000
0100
,
0001
0000
0010
0000
0100
0000
1000
0000
0010
0000
0100
0000
1000
0000
0001
0000
0100
0000
1000
0000
0010
0000
0001
0000
0001
0010
0100
1000
0001
0010
0100
1000
,
0011
0000
0100
0000
1010
0000
0100
0000
1100
0010
0000
0010
1100
0000
0010
0000
,
1100
0000
0010
0000
0101
0000
0010
0000
1001
0000
0010
0010
1001
0000
0100
0000
,
0011
0000
0100
0000
1010
0000
0001
0000
0110
1000
0000
1000
0110
0000
0011
0000
,
1100
0000
0010
0000
1001
0000
0100
0000
0011
1000
0000
1000
0011
0100
0010
0001
,
1100
0000
0010
0000
0101
0000
1000
0000
0011
1000
0000
1000
0011
0000
0100
0000
,
1010
0000
0001
0000
0110
0000
1000
0000
1100
0000
0001
0001
1100
0000
0010
0000
,
0101
0000
0010
0000
1001
0000
0010
0000
0101
0000
1000
1000
0101
1000
0100
0010
,
1101
0000
0010
0000
1100
0000
0010
0000
0101
1000
0000
1000
0101
0000
1000
0000
,
0110
0000
1000
0000
0011
0000
0100
0000
1010
0001
0000
0001
1010
0000
0110
0000
,
1001
0000
0010
0000
0101
0000
1000
0000
0110
0000
0001
0001
0110
0000
1000
0000
,
0101
0000
0010
0000
1100
0000
0001
0000
0110
0001
0000
0001
0110
0000
1000
0000
,
2020
0000
3030
0000
;
